Deep.2017.720p.WEB-DL.x264.AAC.ESub

  • Category Movies
  • Type HD
  • Language English
  • Total size 829.9 MB
  • Uploaded By Creampie
  • Downloads 1814
  • Last checked 5 hours ago
  • Date uploaded 4 days ago
  • Seeders 28
  • Leechers 11

Deep

Animation

In 2100, when humanity has abandoned the earth, a colony of extravagant creatures still thrives in the deepest abyss of the ocean.

Infohash : CBC717E87E7B062F223DA45ECC72D6F33E892E04

******************************Thumbnail:**********************



******************************Screenshots:********************

Screen 1


Screen 2


Screen 3


Screen 4


Screen 5

****************************************************************

General
Complete name : Deep.2017.720p.WEB-DL.x264.AAC.ESub.mp4
Format : MPEG-4
Format profile : Base Media
Codec ID : isom (isom/iso2/avc1/mp41)
File size : 822 MiB
Duration : 1 h 32 min
Overall bit rate : 1 240 kb/s
Writing application : Lavf57.56.101

Video
ID : 1
Format : AVC
Format/Info : Advanced Video Codec
Format profile : [email protected]
Format settings : CABAC / 4 Ref Frames
Format settings, CABAC : Yes
Format settings, RefFrames : 4 frames
Codec ID : avc1
Codec ID/Info : Advanced Video Coding
Duration : 1 h 32 min
Bit rate : 1 200 kb/s
Width : 1 280 pixels
Height : 692 pixels
Display aspect ratio : 1.85:1
Frame rate mode : Constant
Frame rate : 23.976 (23976/1000) FPS
Color space : YUV
Chroma subsampling : 4:2:0
Bit depth : 8 bits
Scan type : Progressive
Bits/(Pixel*Frame) : 0.057
Stream size : 774 MiB (94%)


Audio
ID : 2
Format : AAC
Format/Info : Advanced Audio Codec
Format profile : LC
Codec ID : mp4a-40-2
Duration : 1 h 32 min
Bit rate mode : Constant
Bit rate : 66.2 kb/s
Channel(s) : 2 channels
Channel positions : Front: L R
Sampling rate : 48.0 kHz
Frame rate : 46.875 FPS (1024 SPF)
Compression mode : Lossy
Stream size : 43.0 MiB (5%)
Title : Stereo
Language : English
Default : Yes
Alternate group : 1

Files:

Deep.2017.720p.WEB-DL.x264.AAC.ESub
  • 1.jpg (49.0 KB)
  • English.srt (112.5 KB)
  • Sample.mp4 (8.2 MB)
  • Deep.2017.720p.WEB-DL.x264.AAC.ESub.mp4 (821.6 MB)

There are currently no comments. Feel free to leave one :)

Code:

  • udp://tracker.openbittorrent.com:80/announce
  • udp://tracker.opentrackr.org:1337/announce