Baby Driver 2017 720p WEBRIP X264 AC3-DiVERSiTY

  • Category Movies
  • Type HD
  • Language English
  • Total size 2.9 GB
  • Uploaded By MrStark
  • Downloads 65
  • Last checked 2 minutes ago
  • Date uploaded 2 months ago
  • Seeders 24
  • Leechers 11

Baby Driver

ActionCrime

After being coerced into working for a crime boss, a young getaway driver finds himself taking part in a heist doomed to fail.

Infohash : BEF6A7AE24751CA7A6D9B0BE30C61A333E6D7970







Summary : After being coerced into working for a crime boss, a young getaway driver finds himself taking part in a heist doomed to fail



Format: Matroska
Format version: Version 2
File size: 2.84 GiB
Duration: 1h 52mn
Overall bit rate: 3 613 Kbps
Encoded date: UTC 2017-09-12 23:25:06

Video
ID: 1
Format: AVC
Format/Info: Advanced Video Codec
Format profile: [email protected]
Format settings, CABAC: Yes
Format settings, ReFrames: 5 frames
Codec ID: V_MPEG4/ISO/AVC
Duration: 1h 52mn
Bit rate: 3 163 Kbps
Width: 1 280 pixels
Height: 544 pixels
Display aspect ratio: 2.35:1
Frame rate mode: Constant
Frame rate: 23.976 (24000/1001) fps
Color space: YUV
Chroma subsampling: 4:2:0
Bit depth: 8 bits
Scan type: Progressive
Bits/(Pixel*Frame): 0.189
Stream size: 2.49 GiB (88%)
Writing library: x264 core 148 r2638 7599210
Default: Yes
Forced: No

Audio
ID: 2
Format: AC-3
Format/Info: Audio Coding 3
Mode extension: CM (complete main)
Format settings, Endianness: Big
Codec ID: A_AC3
Duration: 1h 52mn
Bit rate mode: Constant
Bit rate: 448 Kbps
Channel(s): 6 channels
Channel positions: Front: L C R, Side: L R, LFE
Sampling rate: 48.0 KHz
Frame rate: 31.250 fps (1536 spf)
Compression mode: Lossy
Stream size: 361 MiB (12%)
Language: English
Default: Yes
Forced: No



Ansel Elgort, Jon Bernthal, Jon Hamm



Click on Thumbnails to see full size images







Hardcoded English for sign language parts
English srt enclosed
Sample/Enjoy

Dont forget to thank the uploader

Greets to:

BBnRG | BHRG | Tinners | Usagi | chris | Hibees | SUPER
Zia | RDX | TDP | FLAWL3SS | ELEKTRI4KA | Tater44
Saleh | Smelly | rosco385 | Toon | Mr.Code

IMDB:http://www.imdb.com/title/tt3890160/
All the people that make p2p what it is...THANKS



Thanks to the original encoder and uploader



Files:

www.torrenting.com - Baby Driver 2017 720p WEBRIP X264 AC3-DiVERSiTY
  • Baby Driver 2017-English.srt (107.9 KB)
  • Baby.Driver.2017.720p.WEBRIP.X264.AC3-DiVERSiTY.mkv (2.8 GB)
  • Baby.Driver.2017.720p.WEBRIP.X264.AC3-DiVERSiTY.sample.mkv (20.1 MB)
  • Torrent Downloaded From www.torrenting.com.txt (0.1 KB)

There are currently no comments. Feel free to leave one :)

Code:

  • udp://eddie4.nl:6969/announce
  • udp://p4p.arenabg.com:1337/announce
  • udp://tracker.coppersurfer.tk:6969
  • udp://tracker.trackerfix.com:80/announce
  • udp://tracker.coppersurfer.tk:6969/announce
  • udp://tracker.leechers-paradise.org:6969/announce
  • udp://tracker.zer0day.to:1337/announce
  • udp://tracker.opentrackr.org:1337/announce
  • udp://tracker.pirateparty.gr:6969/announce
  • udp://exodus.desync.com:6969
  • udp://tracker.internetwarriors.net:1337
  • udp://p4p.arenabg.ch:1337/announce
  • udp://tracker.leechers-paradise.org:6969
  • udp://tracker.piratepublic.com:1337/announce