Transformers The Last Knight.2017.720p.BRRip.X264.AC3-EVO

  • Category Movies
  • Type HD
  • Language English
  • Total size 3.4 GB
  • Uploaded By showstopper
  • Downloads 18
  • Last checked 2 months ago
  • Date uploaded 2 months ago
  • Seeders 5
  • Leechers 6

Transformers: The Last Knight

ActionScience FictionThrillerAdventure

In the absence of Optimus Prime, a battle for survival has commenced between the human race and the Transformers. Cade Yeager forms an alliance with Bumblebee, an English lord, and an Oxford professor to learn why the Transformers keep coming back to Earth.

Infohash : B0D28ABC0AE0456370E339782CB4A792620BB576

Transformers The Last Knight.2017.720p.BRRip.X264.AC3-EVO

ImDb: http://www.imdb.com/title/tt3371366



Complete name : Transformers The Last Knight.2017.720p.BRRip.X264.AC3-EVO.mkv
Format : Matroska
Format version : Version 4 / Version 2
File size : 3.35 GiB
Duration : 2 h 34 min
Overall bit rate : 3 102 kb/s
Movie name : EVO
Encoded date : UTC 2017-09-14 09:43:50
Writing application : mkvmerge v6.7.0 ('Back to the Ground') 64bit built on Jan 8 2014 15:10:52
Writing library : libebml v1.3.0 + libmatroska v1.4.1

Video
ID : 1
Format : AVC
Format/Info : Advanced Video Codec
Format profile : [email protected]
Format settings, CABAC : Yes
Format settings, ReFrames : 4 frames
Codec ID : V_MPEG4/ISO/AVC
Duration : 2 h 34 min
Bit rate : 2 750 kb/s
Width : 1 280 pixels
Height : 674 pixels
Display aspect ratio : 1.899
Frame rate mode : Constant
Frame rate : 23.976 (24000/1001) FPS
Color space : YUV
Chroma subsampling : 4:2:0
Bit depth : 8 bits
Scan type : Progressive
Bits/(Pixel*Frame) : 0.133
Stream size : 2.87 GiB (86%)
Writing library : x264 core 130 r2273 b3065e6
Encoding settings : cabac=1 / ref=1 / deblock=1:0:0 / analyse=0x3:0x113 / me=hex / subme=2 / psy=1 / psy_rd=1.00:0.00 / mixed_ref=0 / me_range=16 / chroma_me=1 / trellis=0 / 8x8dct=1 / cqm=0 / deadzone=21,11 / fast_pskip=1 / chroma_qp_offset=0 / threads=6 / lookahead_threads=2 / sliced_threads=0 / nr=0 / decimate=1 / interlaced=0 / bluray_compat=0 / constrained_intra=0 / bframes=3 / b_pyramid=2 / b_adapt=1 / b_bias=0 / direct=1 / weightb=1 / open_gop=0 / weightp=1 / keyint=240 / keyint_min=24 / scenecut=40 / intra_refresh=0 / rc_lookahead=10 / rc=abr / mbtree=1 / bitrate=2750 / ratetol=1.0 / qcomp=0.60 / qpmin=0 / qpmax=69 / qpstep=4 / vbv_maxrate=62500 / vbv_bufsize=78125 / nal_hrd=none / ip_ratio=1.40 / aq=1:1.00
Language : English
Default : Yes
Forced : No
Color range : Limited
Color primaries : BT.709
Transfer characteristics : BT.709
Matrix coefficients : BT.709

Audio
ID : 2
Format : AC-3
Format/Info : Audio Coding 3
Format settings, Endianness : Big
Codec ID : A_AC3
Duration : 2 h 34 min
Bit rate mode : Constant
Bit rate : 384 kb/s
Channel(s) : 6 channels
Channel positions : Front: L C R, Side: L R, LFE
Sampling rate : 48.0 kHz
Frame rate : 31.250 FPS (1536 spf)
Bit depth : 16 bits
Compression mode : Lossy
Stream size : 425 MiB (12%)
Language : English
Service kind : Complete Main
Default : Yes
Forced : No

Menu
00:00:00.000 : en:Chapter 1
00:06:36.104 : en:Chapter 2
00:14:03.467 : en:Chapter 3
00:21:45.762 : en:Chapter 4
00:27:53.296 : en:Chapter 5
00:33:53.948 : en:Chapter 6
00:40:08.906 : en:Chapter 7
00:46:58.941 : en:Chapter 8
00:53:25.827 : en:Chapter 9
01:02:02.927 : en:Chapter 10
01:08:47.081 : en:Chapter 11
01:14:37.222 : en:Chapter 12
01:20:10.180 : en:Chapter 13
01:29:13.514 : en:Chapter 14
01:37:59.498 : en:Chapter 15
01:44:57.582 : en:Chapter 16
01:51:15.502 : en:Chapter 17
01:57:59.447 : en:Chapter 18
02:06:09.728 : en:Chapter 19
02:10:54.096 : en:Chapter 20
02:16:01.278 : en:Chapter 21
02:21:42.744 : en:Chapter 22
02:25:17.291 : en:Chapter 23






Click To View Screenshot

Click To View Screenshot

Click To View Screenshot

Files:

Transformers The Last Knight.2017.720p.BRRip.X264.AC3-EVO
  • Transformers The Last Knight.2017.720p.BRRip.X264.AC3-EVO.mkv (3.4 GB)
  • Transformers The Last Knight.2017.720p.BRRip.X264.AC3-EVO.nfo (0.7 KB)

There are currently no comments. Feel free to leave one :)

Code:

  • udp://tracker.coppersurfer.tk:6969/announce
  • udp://tracker.pirateparty.gr:6969/announce
  • udp://shadowshq.yi.org:6969/announce
  • udp://eddie4.nl:6969/announce
  • udp://tracker.leechers-paradise.org:6969/announce
  • udp://tracker.opentrackr.org:1337/announce
  • udp://p4p.arenabg.ch:1337/announce
  • udp://p4p.arenabg.com:1337/announce
  • udp://9.rarbg.me:2710/announce
  • udp://9.rarbg.to:2710/announce
  • udp://ipv4.tracker.harry.lu:80/announce
  • udp://tracker.grepler.com:6969/announce
  • udp://public.popcorn-tracker.org:6969/announce
  • udp://tracker.opentrackr.org:1337/announce
  • udp://tracker.zer0day.to:1337/announce