Baywatch.2017.UNRATED.BluRay.1080p.DTS.x264-PRoDJi

  • Category Movies
  • Type HD
  • Language English
  • Total size 8.7 GB
  • Uploaded By showstopper
  • Downloads 32
  • Last checked 4 weeks ago
  • Date uploaded 1 month ago
  • Seeders 0
  • Leechers 6

Baywatch

ActionComedy

Devoted lifeguard Mitch Buchannon butts heads with a brash new recruit. Together, they uncover a local criminal plot that threatens the future of the Bay.

Infohash : 7598CA797D4849C15796321134CC7ECC8BF46778

Baywatch.2017.UNRATED.BluRay.1080p.DTS.x264-PRoDJi

ImDb: http://www.imdb.com/title/tt1469304



Complete name : Baywatch.2017.UNRATED.BluRay.1080p.DTS.x264-PRoDJi.mkv
Format : Matroska
Format version : Version 4 / Version 2
File size : 8.74 GiB
Duration : 2 h 1 min
Overall bit rate : 10.3 Mb/s
Encoded date : UTC 2017-09-13 18:15:18
Writing application : mkvmerge v15.0.0 ('Duel with the Devil') 64-bit
Writing library : libebml v1.3.5 + libmatroska v1.4.5

Video
ID : 1
Format : AVC
Format/Info : Advanced Video Codec
Format profile : [email protected]
Format settings, CABAC : Yes
Format settings, ReFrames : 4 frames
Codec ID : V_MPEG4/ISO/AVC
Duration : 2 h 1 min
Bit rate : 8 417 kb/s
Width : 1 920 pixels
Height : 804 pixels
Display aspect ratio : 2.40:1
Frame rate mode : Constant
Frame rate : 23.976 (24000/1001) FPS
Color space : YUV
Chroma subsampling : 4:2:0
Bit depth : 8 bits
Scan type : Progressive
Bits/(Pixel*Frame) : 0.227
Stream size : 7.13 GiB (82%)
Title : PRoDJi HybriD
Writing library : x264 core 152 r2851 ba24899
Encoding settings : cabac=1 / ref=5 / deblock=1:-1:-1 / analyse=0x3:0x113 / me=umh / subme=8 / psy=1 / psy_rd=1.00:0.00 / mixed_ref=1 / me_range=24 / chroma_me=1 / trellis=2 / 8x8dct=1 / cqm=0 / deadzone=21,11 / fast_pskip=1 / chroma_qp_offset=-5 / threads=12 / lookahead_threads=3 / sliced_threads=0 / nr=0 / decimate=0 / interlaced=0 / bluray_compat=0 / constrained_intra=0 / bframes=5 / b_pyramid=1 / b_adapt=2 / b_bias=2 / direct=3 / weightb=1 / open_gop=0 / weightp=2 / keyint=230 / keyint_min=22 / scenecut=40 / intra_refresh=0 / rc_lookahead=45 / rc=2pass / mbtree=1 / bitrate=8417 / ratetol=1.0 / qcomp=0.60 / qpmin=10 / qpmax=41 / qpstep=4 / cplxblur=20.0 / qblur=0.5 / ip_ratio=1.30 / aq=1:1.00
Language : English
Default : Yes
Forced : No

Audio #1
ID : 2
Format : DTS
Format/Info : Digital Theater Systems
Mode : 16
Format settings, Endianness : Big
Codec ID : A_DTS
Duration : 2 h 1 min
Bit rate mode : Constant
Bit rate : 1 510 kb/s
Channel(s) : 6 channels
Channel positions : Front: L C R, Side: L R, LFE
Sampling rate : 48.0 kHz
Frame rate : 93.750 FPS (512 spf)
Bit depth : 24 bits
Compression mode : Lossy
Stream size : 1.28 GiB (15%)
Title : English [email protected] 6 chnls
Language : English
Default : Yes
Forced : No

Audio #2
ID : 3
Format : AC-3
Format/Info : Audio Coding 3
Format settings, Endianness : Big
Codec ID : A_AC3
Duration : 2 h 1 min
Bit rate mode : Constant
Bit rate : 384 kb/s
Channel(s) : 6 channels
Channel positions : Front: L C R, Side: L R, LFE
Sampling rate : 48.0 kHz
Frame rate : 31.250 FPS (1536 spf)
Bit depth : 16 bits
Compression mode : Lossy
Stream size : 333 MiB (4%)
Title : 384 Kbps 6 chnls AC3 Turkish
Language : Turkish
Service kind : Complete Main
Default : No
Forced : No

Text #1
ID : 4
Format : UTF-8
Codec ID : S_TEXT/UTF8
Codec ID/Info : UTF-8 Plain Text
Duration : 1 h 51 min
Bit rate : 4 b/s
Count of elements : 90
Stream size : 3.72 KiB (0%)
Title : UnrateD ForceD
Language : Turkish
Default : Yes
Forced : No

Text #2
ID : 5
Format : UTF-8
Codec ID : S_TEXT/UTF8
Codec ID/Info : UTF-8 Plain Text
Duration : 1 h 54 min
Bit rate : 81 b/s
Count of elements : 2118
Stream size : 67.9 KiB (0%)
Language : English
Default : No
Forced : No

Text #3
ID : 6
Format : UTF-8
Codec ID : S_TEXT/UTF8
Codec ID/Info : UTF-8 Plain Text
Duration : 1 h 54 min
Bit rate : 93 b/s
Count of elements : 1519
Stream size : 77.8 KiB (0%)
Language : Turkish
Default : No
Forced : No

Menu
00:00:00.000 : en:Chapter 01
00:08:55.534 : en:Chapter 02
00:16:54.346 : en:Chapter 03
00:21:01.802 : en:Chapter 04
00:29:40.945 : en:Chapter 05
00:38:03.614 : en:Chapter 06
00:44:55.067 : en:Chapter 07
00:50:33.447 : en:Chapter 08
01:01:29.936 : en:Chapter 09
01:11:48.804 : en:Chapter 10
01:19:44.654 : en:Chapter 11
01:29:00.793 : en:Chapter 12
01:35:23.175 : en:Chapter 13
01:44:31.640 : en:Chapter 14
01:50:07.267 : en:Chapter 15
01:54:52.427 : en:Chapter 16
02:01:22.274 : en:Chapter 17






Click To View Screenshot

Click To View Screenshot

Click To View Screenshot

Files:

Baywatch.2017.UNRATED.BluRay.1080p.DTS.x264-PRoDJi
  • Baywatch.2017.UNRATED.BluRay.1080p.DTS.x264-PRoDJi.mkv (8.7 GB)

There are currently no comments. Feel free to leave one :)

Code:

  • udp://tracker.coppersurfer.tk:6969/announce
  • udp://tracker.pirateparty.gr:6969/announce
  • udp://shadowshq.yi.org:6969/announce
  • udp://eddie4.nl:6969/announce
  • udp://tracker.leechers-paradise.org:6969/announce
  • udp://tracker.opentrackr.org:1337/announce
  • udp://p4p.arenabg.ch:1337/announce
  • udp://p4p.arenabg.com:1337/announce
  • udp://9.rarbg.me:2710/announce
  • udp://9.rarbg.to:2710/announce
  • udp://ipv4.tracker.harry.lu:80/announce
  • udp://tracker.grepler.com:6969/announce
  • udp://public.popcorn-tracker.org:6969/announce
  • udp://tracker.opentrackr.org:1337/announce
  • udp://tracker.zer0day.to:1337/announce