Jeff Dunham Relative Disaster 2017 720p WEB-DL X264 MutzNutz.

  • Category Movies
  • Type HD
  • Language English
  • Total size 1.8 GB
  • Uploaded By showstopper
  • Downloads 25
  • Last checked 1 week ago
  • Date uploaded 1 week ago
  • Seeders 16
  • Leechers 3

Jeff Dunham: Relative Disaster

Ventriloquist Jeff Dunham brings his rude, crude and slightly demented posse of puppets to Ireland for a gleeful skewering of family and politics.

Infohash : 6729ED709B1B2BD013C8A7D91B1621F3288D7221

Jeff Dunham Relative Disaster 2017 720p WEB-DL X264 MutzNutz.

ImDb: http://www.imdb.com/title/tt7364706



Complete name : Jeff Dunham Relative Disaster 2017 720p WEB-DL X264 MutzNutz.mp4
Format : MPEG-4
Format profile : Base Media
Codec ID : isom (isom/avc1)
File size : 1.80 GiB
Duration : 1 h 10 min
Overall bit rate : 3 654 kb/s
Encoded date : UTC 2017-09-13 18:03:04
Tagged date : UTC 2017-09-13 18:03:04

Video
ID : 1
Format : AVC
Format/Info : Advanced Video Codec
Format profile : [email protected]
Format settings, CABAC : Yes
Format settings, ReFrames : 4 frames
Codec ID : avc1
Codec ID/Info : Advanced Video Coding
Duration : 1 h 10 min
Bit rate : 3 268 kb/s
Maximum bit rate : 17.9 Mb/s
Width : 1 280 pixels
Height : 720 pixels
Display aspect ratio : 16:9
Frame rate mode : Constant
Frame rate : 23.976 (24000/1001) FPS
Color space : YUV
Chroma subsampling : 4:2:0
Bit depth : 8 bits
Scan type : Progressive
Bits/(Pixel*Frame) : 0.148
Stream size : 1.61 GiB (89%)
Writing library : x264 core 146 r2538 121396c
Encoding settings : cabac=1 / ref=3 / deblock=1:-1:-1 / analyse=0x3:0x113 / me=hex / subme=7 / psy=1 / psy_rd=1.00:0.15 / mixed_ref=1 / me_range=16 / chroma_me=1 / trellis=2 / 8x8dct=1 / cqm=0 / deadzone=21,11 / fast_pskip=1 / chroma_qp_offset=-3 / threads=12 / lookahead_threads=2 / sliced_threads=0 / nr=0 / decimate=1 / interlaced=0 / bluray_compat=0 / constrained_intra=0 / bframes=3 / b_pyramid=2 / b_adapt=1 / b_bias=0 / direct=1 / weightb=1 / open_gop=0 / weightp=2 / keyint=240 / keyint_min=23 / scenecut=40 / intra_refresh=0 / rc_lookahead=40 / rc=2pass / mbtree=1 / bitrate=3268 / ratetol=1.0 / qcomp=0.80 / qpmin=0 / qpmax=69 / qpstep=4 / cplxblur=20.0 / qblur=0.5 / vbv_maxrate=62500 / vbv_bufsize=78125 / nal_hrd=none / filler=0 / ip_ratio=1.40 / aq=1:1.00
Encoded date : UTC 2017-09-13 18:03:04
Tagged date : UTC 2017-09-13 18:03:19

Audio
ID : 2
Format : AC-3
Format/Info : Audio Coding 3
Format settings, Endianness : Big
Codec ID : ac-3
Duration : 1 h 10 min
Bit rate mode : Constant
Bit rate : 384 kb/s
Channel(s) : 6 channels
Channel positions : Front: L C R, Side: L R, LFE
Sampling rate : 48.0 kHz
Frame rate : 31.250 FPS (1536 spf)
Bit depth : 16 bits
Compression mode : Lossy
Stream size : 194 MiB (11%)
Language : English
Service kind : Complete Main
Encoded date : UTC 2017-09-13 18:03:17
Tagged date : UTC 2017-09-13 18:03:19






Click To View Screenshot

Click To View Screenshot

Click To View Screenshot

Files:

Jeff Dunham Relative Disaster 2017 720p WEB-DL X264 MutzNutz.
  • Jeff Dunham Relative Disaster 2017 720p WEB-DL X264 MutzNutz.mp4 (1.8 GB)

There are currently no comments. Feel free to leave one :)

Code:

  • udp://tracker.coppersurfer.tk:6969/announce
  • udp://tracker.pirateparty.gr:6969/announce
  • udp://shadowshq.yi.org:6969/announce
  • udp://eddie4.nl:6969/announce
  • udp://tracker.leechers-paradise.org:6969/announce
  • udp://tracker.opentrackr.org:1337/announce
  • udp://p4p.arenabg.ch:1337/announce
  • udp://p4p.arenabg.com:1337/announce
  • udp://9.rarbg.me:2710/announce
  • udp://9.rarbg.to:2710/announce
  • udp://ipv4.tracker.harry.lu:80/announce
  • udp://tracker.grepler.com:6969/announce
  • udp://public.popcorn-tracker.org:6969/announce
  • udp://tracker.opentrackr.org:1337/announce
  • udp://tracker.zer0day.to:1337/announce