Despicable Me 3 (2017) x 796 (1080p) DD5.1 - 2.0 x264 Phun Psyz

  • Category Movies
  • Type HD
  • Language English
  • Total size 954.6 MB
  • Uploaded By PhunPsyz
  • Downloads 96
  • Last checked 1 week ago
  • Date uploaded 1 week ago
  • Seeders 6
  • Leechers 9

Despicable Me 3

AdventureAnimationComedyFamily

Gru and his wife Lucy must stop former '80s child star Balthazar Bratt from achieving world domination.

Infohash : D2B7769359B20C6AC712A92DBC93F6BD7A3E66B5

x265 Size, x264 Compatibility, HD Quality

www.imdb.com/title/tt3469046/

Gru meets his long-lost charming, cheerful, and more successful twin brother Dru who wants to team up with him for one last criminal heist.

Source: FGT (3.10 GiB)












Format : MPEG-4
Format profile : Base Media / Version 2
Codec ID : mp42 (isom/iso2/avc1/mp41)
File size : 955 MiB
Duration : 1 h 30 min
Overall bit rate mode : Variable
Overall bit rate : 1 482 kb/s
Writing application : HandBrake 1.0.7 2017040900

Video
ID : 1
Format : AVC
Format/Info : Advanced Video Codec
Format profile : [email protected]
Format settings, CABAC : Yes
Format settings, ReFrames : 8 frames
Codec ID : avc1
Codec ID/Info : Advanced Video Coding
Duration : 1 h 30 min
Bit rate : 995 kb/s
Width : 1 916 pixels
Height : 796 pixels
Display aspect ratio : 2.40:1
Frame rate mode : Constant
Frame rate : 24.000 FPS
Color space : YUV
Chroma subsampling : 4:2:0
Bit depth : 8 bits
Scan type : Progressive
Bits/(Pixel*Frame) : 0.027
Stream size : 641 MiB (67%)
Writing library : x264 core 148 r2708 86b7198
Color range : Limited
Color primaries : BT.709
Transfer characteristics : BT.709
Matrix coefficients : BT.709
Menus : 4

Audio #1
ID : 2
Format : AAC
Format/Info : Advanced Audio Codec
Format profile : LC
Codec ID : 40
Duration : 1 h 29 min
Bit rate mode : Variable
Bit rate : 320 kb/s
Channel(s) : 2 channels
Channel(s)_Original : 6 channels
Channel positions : Front: L C R, Side: L R, LFE
Sampling rate : 48.0 kHz
Frame rate : 46.875 FPS (1024 spf)
Compression mode : Lossy
Stream size : 205 MiB (22%)
Title : Surround / Surround
Language : English
Default : Yes
Alternate group : 1
Menus : 4

Audio #2
ID : 3
Format : AAC
Format/Info : Advanced Audio Codec
Format profile : LC
Codec ID : 40
Duration : 1 h 29 min
Bit rate mode : Variable
Bit rate : 160 kb/s
Channel(s) : 2 channels
Channel positions : Front: L R
Sampling rate : 48.0 kHz
Frame rate : 46.875 FPS (1024 spf)
Compression mode : Lossy
Stream size : 103 MiB (11%)
Title : Stereo / Stereo
Language : English
Default : No
Alternate group : 1
Menus : 4

Menu
ID : 4
Codec ID : text
Duration : 1 h 30 min
Language : English
Menu For : 1,2,3
00:00:00.000 : 1
00:03:08.000 : 2
00:08:00.000 : 3
00:11:14.667 : 4
00:16:17.333 : 5
00:20:09.333 : 6
00:24:09.333 : 7
00:28:58.667 : 8
00:32:57.333 : 9
00:39:04.000 : 10
00:42:45.333 : 11
00:46:49.333 : 12
00:50:57.333 : 13
00:56:13.333 : 14
01:00:04.000 : 15
01:05:42.667 : 16
01:10:16.000 : 17
01:14:36.000 : 18
01:19:32.000 : 19
01:21:58.667 : 20
Bit rate mode : VBR

Files:

  • Despicable Me 3 (2017) x 796 (1080p) DD5.1 - 2.0 x264 Phun Psyz.mp4 (954.6 MB)

There are currently no comments. Feel free to leave one :)

Code:

  • udp://tracker.coppersurfer.tk:6969/announce
  • udp://tracker.pirateparty.gr:6969/announce
  • udp://shadowshq.yi.org:6969/announce
  • udp://tracker.tiny-vps.com:6969/announce
  • udp://inferno.demonoid.pw:3397/announce
  • udp://tracker.opentrackr.org:1337/announce
  • http://mgtracker.org:6969/announce
  • udp://tracker.leechers-paradise.org:6969/announce
  • udp://eddie4.nl:6969/announce
  • udp://tracker.piratepublic.com:1337/announce
  • udp://tracker.grepler.com:6969/announce
  • http://explodie.org:6969/announce