The Hitmans Bodyguard (2017) 720p HDRip x264 Dual-Audio [Hindi(Cl...

  • Category Movies
  • Type HD
  • Language Hindi
  • Total size 1.1 GB
  • Uploaded By R3con
  • Downloads 31116
  • Last checked 2 months ago
  • Date uploaded 2 months ago
  • Seeders 669
  • Leechers 128

The Hitman's Bodyguard

ActionComedy

The world's top bodyguard gets a new client, a hit man who must testify at the International Court of Justice. They must put their differences aside and work together to make it to the trial on time.

Infohash : 0449125F0A56B1C42036C29B41F2490C4BBFB411







Format                                   : Matroska
Format version                           : Version 4 / Version 2
File size                                : 1.06 GiB
Duration                                 : 1 h 58 min
Overall bit rate                         : 1 290 kb/s
Movie name                               : English - freeallmovie.com

Video
ID                                       : 2
Format                                   : AVC
Format/Info                              : Advanced Video Codec
Format profile                           : [email protected]
Format settings, CABAC                   : Yes
Format settings, RefFrames               : 12 frames
Codec ID                                 : V_MPEG4/ISO/AVC
Duration                                 : 1 h 58 min
Bit rate                                 : 1 000 kb/s
Width                                    : 1 280 pixels
Height                                   : 536 pixels
Display aspect ratio                     : 2.40:1
Frame rate mode                          : Constant
Frame rate                               : 23.976 (24000/1001) FPS
Color space                              : YUV
Chroma subsampling                       : 4:2:0
Bit depth                                : 8 bits
Scan type                                : Progressive
Bits/(Pixel*Frame)                       : 0.061
Stream size                              : 845 MiB (77%)
Title                                    : Freeallmovie.com

Default                                  : Yes
Forced                                   : Yes
Color range                              : Limited
Color primaries                          : BT.709
Transfer characteristics                 : BT.709
Matrix coefficients                      : BT.709

Audio #1
ID                                       : 3
Format                                   : AAC
Format/Info                              : Advanced Audio Codec
Format profile                           : LC
Codec ID                                 : A_AAC
Duration                                 : 1 h 58 min
Bit rate                                 : 192 kb/s
Channel(s)                               : 2 channels
Channel positions                        : Front: L R
Sampling rate                            : 48.0 kHz
Frame rate                               : 46.875 FPS (1024 SPF)
Compression mode                         : Lossy
Delay relative to video                  : 9 ms
Stream size                              : 162 MiB (15%)
Title                                    : Hindi(Cleaned) - Freeallmovie.com
Language                                 : Hindi
Default                                  : Yes
Forced                                   : Yes

Audio #2
ID                                       : 4
Format                                   : AAC
Format/Info                              : Advanced Audio Codec
Format profile                           : LC
Codec ID                                 : A_AAC
Duration                                 : 1 h 58 min
Bit rate                                 : 96.0 kb/s
Channel(s)                               : 6 channels
Channel positions                        : Front: L C R, Side: L R, LFE
Sampling rate                            : 48.0 kHz
Frame rate                               : 46.875 FPS (1024 SPF)
Compression mode                         : Lossy
Delay relative to video                  : 9 ms
Stream size                              : 80.8 MiB (7%)
Title                                    : English - Freeallmovie.com
Language                                 : English
Default                                  : No
Forced                                   : No





Files:

The Hitmans Bodyguard (2017) 720p HDRip x264 Dual-Audio [Hindi(Cleaned) 2 0-English 5 1][AAC] - Hon3y
  • The Hitmans Bodyguard (2017) 720p HDRip x264 Dual-Audio [Hindi(Cleaned) 2 0-English 5 1][AAC] - Hon3y.mkv (1.1 GB)

Comments

Code:

  • udp://tracker.coppersurfer.tk:6969/announce
  • udp://tracker.pirateparty.gr:6969/announce
  • udp://shadowshq.yi.org:6969/announce
  • udp://eddie4.nl:6969/announce
  • udp://tracker.leechers-paradise.org:6969/announce
  • udp://tracker.opentrackr.org:1337/announce
  • udp://62.138.0.158:6969/announce
  • udp://tracker.internetwarriors.net:1337/announce
  • http://tracker.devil-torrents.pl/announce
  • udp://9.rarbg.to:2710/announce
  • udp://ipv4.tracker.harry.lu:80/announce
  • udp://tracker.grepler.com:6969/announce
  • udp://public.popcorn-tracker.org:6969/announce
  • udp://tracker.opentrackr.org:1337/announce
  • udp://tracker.zer0day.to:1337/announce