VIP 2 (Lalkar) 2017 Hindi PreDvd - x264 - 1CD - mkvCinemas

  • Category Movies
  • Type Bollywood
  • Language Hindi
  • Total size 697.9 MB
  • Uploaded By mkvCinemas
  • Downloads 17623
  • Last checked 3 hours ago
  • Date uploaded 3 months ago
  • Seeders 7
  • Leechers 1

Infohash : 9320CFD0DF2214A3199FF00EC4770AF4A73F0A23




VIP 2 (Lalkar) 2017 Hindi PreDvd - x264 - 1CD - mkvCinemas

Source: ictv

Format : Matroska
Format version : Version 2
File size : 696 MiB
Duration : 2 h 3 min
Overall bit rate mode : Variable
Overall bit rate : 787 kb/s

Video
ID : 1
Format : AVC
Format/Info : Advanced Video Codec
Format profile : [email protected]
Format settings, CABAC : Yes
Format settings, RefFrames : 4 frames
Muxing mode : Header stripping
Codec ID : V_MPEG4/ISO/AVC
Duration : 2 h 3 min
Bit rate : 692 kb/s
Width : 720 pixels
Height : 304 pixels
Display aspect ratio : 2.35:1
Frame rate mode : Constant
Frame rate : 29.970 (30000/1001) FPS
Color space : YUV
Chroma subsampling : 4:2:0
Bit depth : 8 bits
Scan type : Progressive
Bits/(Pixel*Frame) : 0.105
Stream size : 597 MiB (86%)
Language : Tamil
Default : Yes
Forced : No
FromStats_BitRate : 692036
FromStats_Duration : 02:03:41.180000000
FromStats_FrameCount : 222413
FromStats_StreamSize : 641965542

Audio
ID : 2
Format : MPEG Audio
Format version : Version 1
Format profile : Layer 3
Mode : Joint stereo
Muxing mode : Header stripping
Codec ID : A_MPEG/L3
Codec ID/Hint : MP3
Duration : 1 h 59 min
Bit rate mode : Variable
Bit rate : 96.0 kb/s
Channel(s) : 2 channels
Sampling rate : 48.0 kHz
Compression mode : Lossy
Stream size : 82.2 MiB (12%)
Writing library : LAME3.99r
Encoding settings : -m j -V 4 -q 3 -lowpass 15.1 --abr 96
Language : Hindi
Default : Yes
Forced : No
FromStats_BitRate : 92878
FromStats_Duration : 02:03:41.232000000
FromStats_FrameCount : 309218
FromStats_StreamSize : 86159352

http://www.mkvCinemas.Com







Files:

mkvCinemas.Com - VIP 2 (Lalkar) 2017 Hindi PreDvd - x264 - 1CD - mkvCinemas
  • mkvCinemas.Com Release.txt (0.0 KB)
  • mkvCinemas.Com - VIP 2 (Lalkar) 2017 Hindi PreDvd - x264 - 1CD - mkvCinemas.mkv (696.0 MB)
  • Sample - mkvCinemas.Com - VIP 2 (Lalkar) 2017 Hindi PreDvd - x264 - 1CD - mkvCinemas.mkv (1.8 MB)

Comments

Code:

  • udp://tracker.coppersurfer.tk:6969/announce
  • udp://tracker.leechers-paradise.org:6969/announce
  • udp://tracker.pirateparty.gr:6969/announce
  • udp://tracker.coppersurfer.tk:6969
  • udp://eddie4.nl:6969/announce
  • udp://tracker.zer0day.to:1337/announce
  • udp://9.rarbg.me:2710/announce
  • udp://9.rarbg.to:2710/announce
  • udp://public.popcorn-tracker.org:6969/announce
  • udp://p4p.arenabg.ch:1337/announce
  • udp://tracker.grepler.com:6969/announce
  • udp://ipv4.tracker.harry.lu:80/announce
  • udp://tracker.opentrackr.org:1337/announce
  • udp://p4p.arenabg.com:1337/announce
  • udp://shadowshq.yi.org:6969/announce