Bareilly Ki Barfi (2017) Hindi DesiScr - x264 AC3 5.1 - DUS - mkv...

  • Category Movies
  • Type Bollywood
  • Language Hindi
  • Total size 1.5 GB
  • Uploaded By mkvCinemas
  • Downloads 61492
  • Last checked 19 hours ago
  • Date uploaded 1 month ago
  • Seeders 389
  • Leechers 102

Infohash : 90A4BA40DD9CF07AC3132A15169CCCB137E01349




Bareilly Ki Barfi (2017) Hindi DesiScr - x264 AC3 5.1 - DUS - mkvCinemas
Ripper...........: Apka Sallu
Source...........: Atmos Ka Warehouse @ DUS (thanks bhai, you are the King)

Format : Matroska
Format version : Version 2
File size : 1.48 GiB
Duration : 1 h 48 min
Overall bit rate : 1 951 kb/s
Encoded date : UTC 2017-08-19 02:04:42

Video
ID : 1
Format : AVC
Format/Info : Advanced Video Codec
Format profile : [email protected]
Format settings, CABAC : Yes
Format settings, RefFrames : 4 frames
Muxing mode : Header stripping
Codec ID : V_MPEG4/ISO/AVC
Duration : 1 h 48 min
Bit rate : 1 537 kb/s
Width : 720 pixels
Height : 304 pixels
Display aspect ratio : 2.35:1
Frame rate mode : Constant
Frame rate : 25.000 FPS
Color space : YUV
Chroma subsampling : 4:2:0
Bit depth : 8 bits
Scan type : Progressive
Bits/(Pixel*Frame) : 0.281
Stream size : 1.16 GiB (78%)
Writing library : x264 core 142 r2431 ac76440
Encoding settings : cabac=1 / ref=3 / deblock=1:0:0 / analyse=0x3:0x113 / me=hex / subme=7 / psy=1 / psy_rd=1.00:0.00 / mixed_ref=1 / me_range=16 / chroma_me=1 / trellis=1 / 8x8dct=1 / cqm=0 / deadzone=21,11 / fast_pskip=1 / chroma_qp_offset=-2 / threads=1 / lookahead_threads=1 / sliced_threads=0 / nr=0 / decimate=1 / interlaced=0 / bluray_compat=0 / constrained_intra=0 / bframes=3 / b_pyramid=2 / b_adapt=1 / b_bias=0 / direct=1 / weightb=1 / open_gop=0 / weightp=2 / keyint=250 / keyint_min=24 / scenecut=40 / intra_refresh=0 / rc_lookahead=40 / rc=abr / mbtree=1 / bitrate=1537 / ratetol=1.0 / qcomp=0.60 / qpmin=0 / qpmax=69 / qpstep=4 / ip_ratio=1.40 / aq=1:1.00
Default : Yes
Forced : No
02:04:42
FromStats_BitRate : 1566276
FromStats_Duration : 01:48:55.040000000
FromStats_FrameCount : 163376
FromStats_StreamSize : 1279459903

Audio
ID : 2
Format : AC-3
Format/Info : Audio Coding 3
Format settings, Endianness : Big
Muxing mode : Header stripping
Codec ID : A_AC3
Duration : 1 h 48 min
Bit rate mode : Constant
Bit rate : 384 kb/s
Channel(s) : 6 channels
Channel positions : Front: L C R, Side: L R, LFE
Sampling rate : 48.0 kHz
Frame rate : 31.250 FPS (1536 SPF)
Bit depth : 16 bits
Compression mode : Lossy
Delay relative to video : 8 ms
Stream size : 299 MiB (20%)
Language : Hindi
Service kind : Complete Main
Default : Yes
Forced : No 02:04:42
FromStats_BitRate : 384000
FromStats_Duration : 01:48:55.360000000
FromStats_FrameCount : 204230
FromStats_StreamSize : 313697280

Note: Tagged as DesiSCR bcoz the print has no people moving around nor no camera movement.
Audio is also good. Rest, whatever you want take it, I DONT care bcoz people DO NOT
appreciate our efforts here.

http://www.mkvCinemas.Com









Files:

mkvCinemas.Com - Bareilly Ki Barfi (2017) Hindi PreDvd - x264 AC3 5.1 - DUS - mkvCinemas
  • mkvCinemas.Com - Bareilly Ki Barfi (2017) 1-3 PreDvd - x264 AC3 5.1 - DUS - mkvCinemas.mkv (1.5 GB)
  • mkvCinemas.Com Release.txt (0.0 KB)
  • SAMPLE - Bareilly Ki Barfi (2017) 1-3 PreDvd - x264 AC3 5.1 - DUS.mkv (15.3 MB)

Comments

Code:

  • udp://tracker.coppersurfer.tk:6969/announce
  • udp://tracker.leechers-paradise.org:6969/announce
  • udp://tracker.pirateparty.gr:6969/announce
  • udp://tracker.coppersurfer.tk:6969
  • udp://eddie4.nl:6969/announce
  • udp://tracker.zer0day.to:1337/announce
  • udp://9.rarbg.me:2710/announce
  • udp://9.rarbg.to:2710/announce
  • udp://public.popcorn-tracker.org:6969/announce
  • udp://p4p.arenabg.ch:1337/announce
  • udp://tracker.grepler.com:6969/announce
  • udp://ipv4.tracker.harry.lu:80/announce
  • udp://tracker.opentrackr.org:1337/announce
  • udp://p4p.arenabg.com:1337/announce
  • udp://shadowshq.yi.org:6969/announce